<?xml version="1.0" standalone="no"?>
<!DOCTYPE svg PUBLIC "-//W3C//DTD SVG 1.1//EN" "http://www.w3.org/Graphics/SVG/1.1/DTD/svg11.dtd" >
<svg xmlns="http://www.w3.org/2000/svg" xmlns:xlink="http://www.w3.org/1999/xlink" version="1.1">
<metadata>
Created by FontForge 20201107 at Wed Jan  3 14:46:40 2024
 By 
Copyright (c) 1991 Adobe Systems Incorporated.  All Rights Reserved.
</metadata>
<defs>
<font id="ATSackersCornwell-Medium" horiz-adv-x="1402" >
  <font-face 
    font-family="ATSackersCornwell Med"
    font-weight="500"
    font-stretch="normal"
    units-per-em="2048"
    panose-1="0 0 0 0 0 0 0 0 0 0"
    ascent="1638"
    descent="-410"
    x-height="1061"
    cap-height="1061"
    bbox="-305 -475 1913 1655"
    underline-thickness="102"
    underline-position="-204"
    unicode-range="U+0020-FB06"
  />
<missing-glyph horiz-adv-x="757" 
 />
    <glyph glyph-name=".notdef" horiz-adv-x="757" 
 />
    <glyph glyph-name=".null" horiz-adv-x="0" 
 />
    <glyph glyph-name="nonmarkingreturn" horiz-adv-x="682" 
 />
    <glyph glyph-name="space" unicode=" " horiz-adv-x="757" 
 />
    <glyph glyph-name="exclam" unicode="!" horiz-adv-x="497" 
d="M336 1061l-33 -809h-108l-33 809h174zM358 78q0 -43 -30.5 -74t-73.5 -31q-44 0 -74 31t-30 74t30 73.5t74 30.5q43 0 73.5 -30.5t30.5 -73.5z" />
    <glyph glyph-name="quotedbl" unicode="&#x22;" horiz-adv-x="630" 
d="M217 662h-78l-26 305v98h131v-98zM492 662h-78l-27 305v98h131v-98z" />
    <glyph glyph-name="numbersign" unicode="#" horiz-adv-x="1054" 
d="M686 653h-246l-78 -213h246zM1032 754l-35 -101h-209l-75 -213h207l-35 -100h-209l-121 -340h-102l120 340h-245l-123 -340h-103l121 340h-200l30 100h207l78 213h-205l35 101h205l104 284h103l-105 -284h248l102 284h103l-103 -284h207z" />
    <glyph glyph-name="dollar" unicode="$" 
d="M659 635v323q-253 0 -253 -180q0 -37 15.5 -64t38.5 -42t58.5 -23.5t67 -11t73.5 -2.5zM791 483v-370q101 18 145 36q133 55 133 175q0 159 -278 159zM791 -27v-116h-132v116q-151 7 -263 63t-226 165l90 110q100 -100 184.5 -144.5t214.5 -53.5v370q-119 0 -179 12
q-230 48 -230 271q0 77 30.5 138t75.5 96t103 57.5t106.5 30.5t93.5 8v125h132v-125q113 -9 211.5 -49.5t166.5 -100.5l-82 -117q-89 62 -152.5 90.5t-143.5 38.5v-325q24 0 40 -0.5t52 -3t63 -7.5t64.5 -16t65 -25.5t57.5 -38.5t48.5 -53.5t31 -71t12.5 -91.5
q0 -61 -19.5 -113t-48.5 -86.5t-71.5 -62t-80.5 -43t-84 -26.5t-73 -15t-57 -7z" />
    <glyph glyph-name="percent" unicode="%" horiz-adv-x="1478" 
d="M430 965q-63 0 -114.5 -34t-51.5 -89q0 -63 49 -99t119 -36q69 0 119.5 33t50.5 94q0 62 -51.5 96.5t-120.5 34.5zM1042 354q-63 0 -114 -34t-51 -89q0 -64 48 -99.5t117 -35.5q70 0 120 33t50 94t-51 96t-119 35zM1214 1083l-806 -1132h-144l809 1132h141zM432 594
q-122 0 -205.5 67.5t-83.5 188.5q0 72 46.5 126.5t110.5 79.5t130 25q70 0 135.5 -27t111.5 -84.5t46 -133.5q0 -78 -44.5 -134.5t-109 -82t-137.5 -25.5zM1042 -18q-121 0 -203.5 67.5t-82.5 188.5q0 72 46.5 126.5t110 79.5t129.5 25q71 0 136 -26.5t111 -84t46 -133.5
q0 -116 -88 -179.5t-205 -63.5z" />
    <glyph glyph-name="ampersand" unicode="&#x26;" horiz-adv-x="1415" 
d="M911 203l-321 327q-293 -77 -293 -211q0 -62 51 -109.5t125 -70t156 -22.5q109 0 178.5 26t103.5 60zM1124 188l183 -188h-201l-92 92q-70 -49 -177.5 -84t-215.5 -35q-123 0 -226.5 38.5t-171.5 120t-69 192.5q0 58 27.5 109.5t65 84.5t87.5 60.5t84.5 40.5t66.5 22
q-2 3 -27.5 35.5t-40.5 54t-30.5 55.5t-15.5 60q0 103 102.5 171t249.5 68q142 0 332 -86l-64 -133q-143 78 -268 78q-71 0 -140 -29t-69 -63q0 -29 45 -74l465 -483q90 90 154 197l116 -78q-42 -75 -79.5 -124t-90.5 -102z" />
    <glyph glyph-name="quotesingle" unicode="'" horiz-adv-x="385" 
d="M231 657h-77l-27 306v98h131v-98z" />
    <glyph glyph-name="parenleft" unicode="(" horiz-adv-x="692" 
d="M541 -10l-17 -17q-1 1 -6 4q-196 135 -289 333q-69 146 -69 308q0 59 10 116t26 104t39 92t47.5 80t53 68.5t52.5 57t49.5 45t41.5 33t31 21.5l14 10l17 -16q-1 -3 -14 -17.5t-33.5 -39t-45 -58.5t-48.5 -84t-44 -108.5t-32.5 -137.5t-12.5 -166q0 -122 23 -229t57 -175
t67 -117t57.5 -76t25.5 -31z" />
    <glyph glyph-name="parenright" unicode=")" horiz-adv-x="692" 
d="M152 1229l14 16q63 -44 85 -62q203 -169 261 -398q20 -81 20 -167q0 -82 -19 -161t-44.5 -136.5t-66.5 -115t-70.5 -91t-72 -70t-55 -45t-34.5 -23.5q-3 -2 -4 -3l-14 17q0 4 24 31t57.5 76t67 117t57 175t23.5 229q0 119 -23.5 223t-57 170.5t-67 114.5t-57.5 74t-24 29
z" />
    <glyph glyph-name="asterisk" unicode="*" horiz-adv-x="679" 
d="M551 649l-174 99v-199h-64v199l-178 -101l-33 55l177 101l-173 100l31 53l176 -96v201h64v-201l172 98l33 -55l-174 -100l174 -98z" />
    <glyph glyph-name="plus" unicode="+" horiz-adv-x="1306" 
d="M1102 338h-397v-332h-123v332h-377v131h377v330h123v-330h397v-131z" />
    <glyph glyph-name="comma" unicode="," horiz-adv-x="632" 
d="M233 -270l-10 18q1 1 14 12t21 18t23.5 21.5t25.5 25.5t23 27.5t20.5 30t13 30t5.5 30.5q0 21 -16.5 28t-48.5 10t-48 9q-59 26 -59 96q0 38 28 67t66 29q56 0 99.5 -47t43.5 -127q0 -48 -19 -93.5t-46 -76.5t-57 -56t-50.5 -37.5t-28.5 -14.5z" />
    <glyph glyph-name="hyphen" unicode="-" horiz-adv-x="540" 
d="M51 477h449v-121h-449v121z" />
    <glyph glyph-name="period" unicode="." horiz-adv-x="602" 
d="M406 78q0 -43 -31 -74t-74 -31q-44 0 -74 31t-30 74t30 73.5t74 30.5q43 0 74 -30.5t31 -73.5z" />
    <glyph glyph-name="slash" unicode="/" horiz-adv-x="890" 
d="M692 1061h123l-608 -1061h-125z" />
    <glyph glyph-name="zero" unicode="0" horiz-adv-x="1445" 
d="M723 926q-114 0 -204.5 -34t-145.5 -91t-84 -126.5t-29 -144.5q0 -76 29 -145.5t84 -126t145.5 -90t204.5 -33.5q90 0 167 22t130 60t91 89t55.5 107.5t17.5 116.5q0 75 -29 144.5t-83.5 126.5t-145 91t-203.5 34zM723 -27q-142 0 -261 44.5t-198 120.5t-122.5 177
t-43.5 215t43.5 214.5t122.5 176.5t198 120t261 44t260 -44t197 -120t122.5 -176.5t43.5 -214.5t-43.5 -215t-122 -177t-197.5 -120.5t-260 -44.5z" />
    <glyph glyph-name="one" unicode="1" horiz-adv-x="993" 
d="M578 0h-164v1061h164v-1061z" />
    <glyph glyph-name="two" unicode="2" horiz-adv-x="1445" 
d="M1212 0h-972q0 587 438 633l215 22q71 8 114.5 39t43.5 76q0 58 -68 107t-219 49q-140 0 -250 -35q-71 -26 -178 -82l-76 143q131 67 242 100t250 33q59 0 118 -8.5t121.5 -31t110 -56.5t78 -90t30.5 -127q0 -83 -45 -146t-112.5 -96t-149.5 -41l-219 -22
q-58 -6 -104.5 -29t-74.5 -53t-48.5 -72t-30 -76.5t-16.5 -76.5h802v-160z" />
    <glyph glyph-name="three" unicode="3" horiz-adv-x="1445" 
d="M702 -27q-178 0 -302.5 41.5t-252.5 128.5l89 133q14 -8 37 -23.5t36 -23.5q45 -25 92 -43q127 -51 297 -51q113 0 199.5 15.5t134 41t71 52t23.5 53.5q0 78 -99.5 128t-268.5 50h-115v162h115q303 0 303 147q0 16 -7.5 32.5t-30 37t-58 36t-98.5 26t-144 10.5
q-110 0 -199 -29q-41 -11 -174 -70l-76 140q116 58 214 88t231 30q240 0 372 -83.5t132 -210.5q0 -79 -49 -150q-22 -31 -74 -76q35 -20 61 -39t58.5 -51.5t50.5 -76t18 -93.5q0 -151 -159 -241.5t-427 -90.5z" />
    <glyph glyph-name="four" unicode="4" horiz-adv-x="1445" 
d="M932 864l-576 -438h576v438zM1337 266h-245v-266h-160v266h-758l-76 154l832 641h162v-635h245v-160z" />
    <glyph glyph-name="five" unicode="5" horiz-adv-x="1445" 
d="M692 -27q-258 0 -542 164l94 131q119 -63 182 -86q129 -47 268 -47q64 0 133 13.5t131 38t102 66t40 91.5q0 88 -104 142.5t-253 54.5q-121 0 -225 -33q-60 -19 -205 -88l-104 90v551h973v-162h-813v-274q221 75 376 75q242 0 378.5 -106.5t136.5 -255.5
q0 -73 -39 -138.5t-110 -116t-180 -80.5t-239 -30z" />
    <glyph glyph-name="six" unicode="6" horiz-adv-x="1445" 
d="M799 506q-229 0 -473 -131q114 -240 430 -240q193 0 298 58.5t105 138.5q0 28 -17.5 55.5t-56 55.5t-113 45.5t-173.5 17.5zM760 -27q-142 0 -261 43t-197 116.5t-121.5 171t-43.5 206.5q0 116 49 221.5t133.5 183.5t206.5 124t260 46q179 0 320 -65q45 -17 102 -53
q15 -9 38.5 -25.5t33.5 -23.5l-94 -132q-208 140 -402 140q-95 0 -176 -25.5t-135.5 -66t-94.5 -92t-59 -101.5t-22 -96q252 121 496 121q73 0 144 -10.5t141.5 -35.5t123.5 -63t86 -98t33 -135q0 -69 -32 -127.5t-86.5 -99t-126.5 -69t-152 -42t-164 -13.5z" />
    <glyph glyph-name="seven" unicode="7" horiz-adv-x="1474" 
d="M1200 946l-657 -946h-195l629 899h-762v162h893z" />
    <glyph glyph-name="eight" unicode="8" horiz-adv-x="1445" 
d="M729 479q-112 0 -205 -18.5t-155 -60t-62 -99.5q0 -73 108.5 -119.5t317.5 -46.5q213 0 308.5 44.5t95.5 117.5q0 92 -107 137t-301 45zM723 926q-94 0 -163 -11.5t-105.5 -31t-53 -41t-16.5 -45.5q0 -73 94 -115.5t250 -42.5q78 0 138.5 10.5t96 26.5t58.5 37t31 39
t8 36q0 66 -89.5 102t-248.5 36zM729 -27q-270 0 -427 84t-157 246q0 173 203 266q-46 37 -69 68q-54 73 -54 158q0 84 42 143t117 90t158.5 44t186.5 13q49 0 95 -4t106 -14t109 -31t92 -52.5t67.5 -81.5t24.5 -114q0 -84 -54 -153q-22 -28 -47 -47q-4 -3 -12 -10.5
t-12 -10.5q38 -19 67 -39t62.5 -53t52 -79.5t18.5 -102.5q0 -147 -153 -233.5t-416 -86.5z" />
    <glyph glyph-name="nine" unicode="9" horiz-adv-x="1445" 
d="M700 926q-188 0 -295.5 -63.5t-107.5 -133.5q0 -26 18 -53.5t56.5 -56t113 -46.5t172.5 -18q227 0 473 129q-112 242 -430 242zM672 -27q-171 0 -322 66q-57 26 -100 55q-11 6 -72 49l92 131q207 -139 402 -139q95 0 176.5 25.5t136 65.5t94 91t58.5 101.5t22 97.5
q-253 -123 -495 -123q-73 0 -144 10.5t-141 36t-123 63.5t-86 98t-33 134q0 68 34.5 126.5t91.5 99t130.5 69t151 42t153.5 13.5q142 0 260.5 -42.5t197.5 -115.5t122 -170.5t43 -207.5q0 -115 -49 -221t-133.5 -184t-206.5 -124.5t-260 -46.5z" />
    <glyph glyph-name="colon" unicode=":" horiz-adv-x="546" 
d="M352 610q0 -38 -26.5 -64t-63.5 -26q-38 0 -64 26t-26 64q0 37 26 63.5t64 26.5q37 0 63.5 -26.5t26.5 -63.5zM352 68q0 -38 -26.5 -64.5t-63.5 -26.5q-38 0 -64 26.5t-26 64.5q0 37 26 63.5t64 26.5q37 0 63.5 -26.5t26.5 -63.5z" />
    <glyph glyph-name="semicolon" unicode=";" horiz-adv-x="550" 
d="M352 610q0 -38 -26.5 -64t-63.5 -26q-38 0 -64 26t-26 64q0 37 26 63.5t64 26.5q37 0 63.5 -26.5t26.5 -63.5zM203 -244l-8 17q127 102 127 170q0 18 -14.5 24.5t-42.5 8.5t-42 8q-51 16 -51 82q0 35 24 59.5t58 24.5q47 0 85 -41.5t38 -110.5q0 -51 -24 -98t-57 -76.5
t-57.5 -46.5t-35.5 -21z" />
    <glyph glyph-name="question" unicode="?" horiz-adv-x="935" 
d="M487 78q0 -43 -30.5 -74t-73.5 -31q-44 0 -74 31t-30 74t30 73.5t74 30.5q43 0 73.5 -30.5t30.5 -73.5zM313 317q6 145 86 222q40 40 76 63q37 27 84 57t70 50q38 27 53.5 49.5t15.5 52.5q0 56 -53 86q-61 33 -143 33q-104 0 -176 -37q-72 -38 -152 -121l-115 105
q94 97 185 145q106 53 260 53q71 0 131 -13t112 -42t81.5 -82t29.5 -125q0 -118 -108 -205q-35 -28 -72 -51q-35 -22 -74 -49q-58 -39 -92.5 -83t-38.5 -108v-65h-160v65z" />
    <glyph glyph-name="at" unicode="@" horiz-adv-x="1495" 
d="M852 688q-33 33 -76 33q-70 0 -137.5 -68t-67.5 -172q0 -61 27.5 -92t73.5 -31q85 0 170 91l51 157q-8 41 -41 82zM848 342q-93 -96 -203 -96q-83 0 -141 55q-58 58 -58 166q0 72 31 145q30 70 80 117q49 49 107 76q57 29 112 29q66 0 111 -39q31 -25 47 -62l27 78h118
l-125 -377q-4 -20 -4 -26q0 -62 66 -62q73 0 149 82q35 38 58 94q22 54 22 121q0 145 -117 244q-119 96 -305 96q-107 0 -207 -35q-99 -34 -174 -96q-74 -62 -118 -152q-45 -89 -45 -196q0 -203 155 -324q67 -52 154 -79t176 -27q84 0 186 24q99 21 162 56l35 -88
q-70 -40 -176 -66q-116 -29 -211 -29q-106 0 -212.5 33t-187.5 98q-57 42 -102 103q-94 121 -94 297q0 129 55 239q53 112 146 187q84 70 208 116q113 41 250 41q123 0 215 -32q103 -36 168 -92q69 -59 107.5 -141t38.5 -173q0 -85 -35 -166q-36 -80 -88 -129
q-53 -50 -115 -80q-64 -28 -121 -28q-61 0 -104 30q-34 24 -41 68z" />
    <glyph glyph-name="A" unicode="A" 
d="M465 428h463l-232 430zM608 1061h180l578 -1061h-213l-135 248h-647l-131 -248h-205z" />
    <glyph glyph-name="B" unicode="B" horiz-adv-x="1517" 
d="M453 473v-293h491q111 0 167 30.5t56 106.5q0 41 -10 69.5t-26.5 45.5t-45 26t-58.5 12t-75 3h-499zM453 881v-228h491q170 0 170 113q0 65 -43 90t-127 25h-491zM272 0v1061h672q44 0 85 -5t91.5 -22.5t87 -46t61.5 -80.5t25 -121q0 -24 -1 -43t-5 -36.5t-6.5 -27.5
t-10 -25.5t-10.5 -21t-14 -23.5t-14 -23q51 -54 69 -82q46 -74 46 -174q0 -149 -98 -239.5t-306 -90.5h-672z" />
    <glyph glyph-name="C" unicode="C" horiz-adv-x="1517" 
d="M1282 297l80 -166q-91 -62 -168 -93q-170 -71 -371 -71q-192 0 -341.5 70t-233.5 198.5t-84 296.5q0 162 84.5 291t229 200t321.5 71q85 0 164.5 -15.5t131.5 -34t110.5 -52t81.5 -50t63 -47.5l-97 -152q-7 4 -38 25t-41 27.5t-40 25t-46.5 25.5t-46.5 21t-53.5 19.5
t-55 13t-64.5 10.5t-69 3q-206 0 -330.5 -113t-124.5 -280q0 -72 29.5 -137.5t86.5 -118.5t150.5 -85t210.5 -32q70 0 139 13t113 27.5t96 41.5t66.5 37t46.5 31z" />
    <glyph glyph-name="D" unicode="D" horiz-adv-x="1554" 
d="M444 881v-701h402q101 0 180.5 37t129.5 118t50 197q0 95 -29.5 164.5t-81.5 108.5t-114 57.5t-135 18.5h-402zM264 0v1061h582q53 0 103 -6t105 -22t102 -41t90 -66.5t73.5 -94.5t48.5 -129t18 -167q0 -133 -44 -237.5t-119.5 -168.5t-171.5 -96.5t-205 -32.5h-582z" />
    <glyph glyph-name="E" unicode="E" 
d="M459 180h774v-180h-954v1061h933v-180h-753v-244h413v-180h-413v-277z" />
    <glyph glyph-name="F" unicode="F" horiz-adv-x="1366" 
d="M936 457h-438v-457h-181v1061h924v-180h-743v-244h438v-180z" />
    <glyph glyph-name="G" unicode="G" horiz-adv-x="1478" 
d="M840 592h485v-436q-2 -1 -27.5 -19t-34.5 -23.5t-37.5 -23.5t-44.5 -26t-48.5 -24t-56.5 -24t-60.5 -19t-69 -16.5t-73.5 -9.5t-82 -4q-143 0 -264.5 45.5t-202 123t-125.5 179.5t-45 215q0 111 43.5 212.5t123.5 180t203.5 125t272.5 46.5q94 0 178 -17.5t145.5 -48
t97.5 -52.5t70 -48q7 -6 10 -8l-104 -146q-208 139 -397 139q-111 0 -201 -32t-146 -86t-86 -122.5t-30 -144.5q0 -74 30.5 -142t87 -121.5t145 -85.5t196.5 -32q176 0 352 103v162h-305v180z" />
    <glyph glyph-name="H" unicode="H" horiz-adv-x="1630" 
d="M1141 1061h180v-1061h-180v455h-652v-455h-180v1061h180v-426h652v426z" />
    <glyph glyph-name="I" unicode="I" horiz-adv-x="796" 
d="M307 1061h180v-1061h-180v1061z" />
    <glyph glyph-name="J" unicode="J" horiz-adv-x="1327" 
d="M879 1061h180v-586q0 -118 -25 -207.5t-80.5 -158.5t-153 -105.5t-233.5 -36.5q-88 0 -164 21t-125.5 51t-90.5 72t-62 75t-37 68l150 100q98 -207 331 -207q50 0 92 7.5t72 19t53.5 31t39 37t26 45t16 46.5t8 49.5t3 47t0.5 45.5v586z" />
    <glyph glyph-name="K" unicode="K" horiz-adv-x="1366" 
d="M1204 1061l-409 -389l481 -672h-221l-402 553l-198 -176v-377h-181v1061h181v-471l518 471h231z" />
    <glyph glyph-name="L" unicode="L" horiz-adv-x="1175" 
d="M446 180h648v-180h-828v1061h180v-881z" />
    <glyph glyph-name="M" unicode="M" horiz-adv-x="1781" 
d="M1292 1061h181v-1061h-181v745h-4l-397 -595l-397 595h-5v-745h-180v1061h180l402 -610z" />
    <glyph glyph-name="N" unicode="N" horiz-adv-x="1630" 
d="M1147 1061h180v-1061h-180l-664 788v-788h-180v1061h180l664 -787v787z" />
    <glyph glyph-name="O" unicode="O" horiz-adv-x="1705" 
d="M1501 530q0 -115 -44.5 -217.5t-126 -179t-205.5 -121.5t-273 -45q-147 0 -270.5 45t-205.5 121.5t-127.5 179t-45.5 217.5t44.5 217.5t126 179.5t205.5 122t273 45t273 -45t205.5 -122.5t126 -179.5t44.5 -217zM852 147q214 0 341.5 111.5t127.5 271.5q0 77 -32.5 146.5
t-91.5 122t-148.5 83.5t-196.5 31t-196.5 -31t-148.5 -83.5t-91.5 -122t-32.5 -146.5t32.5 -146.5t91.5 -122t148.5 -83.5t196.5 -31z" />
    <glyph glyph-name="P" unicode="P" horiz-adv-x="1441" 
d="M459 881v-316h411q56 0 91.5 2.5t69 11.5t51.5 26t29 45.5t11 70.5q0 26 -4.5 47.5t-10.5 37.5t-19 28t-23 20t-30.5 13t-34 8t-40.5 4.5t-42.5 1.5h-47.5h-411zM870 385h-411v-385h-180v1061h591q43 0 77.5 -2t81 -10t82.5 -22t73.5 -39.5t62.5 -60.5t40.5 -87.5
t15.5 -118.5q0 -97 -30.5 -164t-90 -104t-135 -52.5t-177.5 -15.5z" />
    <glyph glyph-name="Q" unicode="Q" horiz-adv-x="1705" 
d="M864 209l178 76l76 -80q94 53 148.5 140t54.5 185q0 77 -32.5 146.5t-91.5 122t-148.5 83.5t-196.5 31t-196.5 -31t-148.5 -83.5t-91.5 -122t-32.5 -146.5t32.5 -146.5t91.5 -122t148.5 -83.5t196.5 -31q38 0 61 5zM1249 66l123 -132l-176 -75l-131 131q-79 -19 -109 -21
q-17 -2 -104 -2q-147 0 -270.5 45t-205.5 121.5t-127.5 179t-45.5 217.5t44.5 217.5t126 179.5t205.5 122t273 45t273 -45t205.5 -122.5t126 -179.5t44.5 -217q0 -145 -59.5 -257t-192.5 -207z" />
    <glyph glyph-name="R" unicode="R" horiz-adv-x="1478" 
d="M457 881v-267h493q205 0 205 138q0 35 -10 59t-25.5 38t-45 21t-58.5 9t-76 2h-483zM1051 438l309 -438h-225l-306 434h-372v-434h-181v1061h656q84 0 153.5 -15.5t127 -49t90 -95t32.5 -145.5q0 -273 -284 -318z" />
    <glyph glyph-name="S" unicode="S" 
d="M1206 952l-84 -161q-105 59 -166 80q-121 42 -272 42q-146 0 -221.5 -36.5t-75.5 -104.5q0 -55 22 -81.5t95 -40t225 -13.5q117 0 206 -11t146 -33t94.5 -48.5t56.5 -64.5t25.5 -73t6.5 -81q0 -359 -523 -359q-365 0 -622 180l86 158q114 -68 161 -89q155 -69 379 -69
q324 0 324 160q0 98 -78.5 121t-388.5 29q-197 5 -303 72t-106 223q0 69 27 128.5t83 108.5t153 77t226 28q90 0 175.5 -15t161 -44t106.5 -43t81 -40z" />
    <glyph glyph-name="T" unicode="T" horiz-adv-x="1251" 
d="M1122 881h-405v-881h-180v881h-410v180h995v-180z" />
    <glyph glyph-name="U" unicode="U" horiz-adv-x="1630" 
d="M1147 1061h180v-600q0 -86 -12.5 -155t-47 -134t-90.5 -108.5t-148 -70t-214 -26.5t-213.5 26t-147.5 70t-90.5 109t-47.5 134t-13 155v600h180v-600q0 -64 6 -107.5t26 -85.5t55.5 -66.5t96.5 -39.5t148 -15t148 15t96.5 39.5t55.5 66.5t26 85.5t6 107.5v600z" />
    <glyph glyph-name="V" unicode="V" horiz-adv-x="1366" 
d="M1110 1061h205l-559 -1061h-181l-550 1061h204l439 -844z" />
    <glyph glyph-name="W" unicode="W" horiz-adv-x="1705" 
d="M1481 1061h192l-389 -1061h-180l-248 764h-4l-260 -764h-180l-375 1061h192l269 -768h4l266 768h180l248 -768h4z" />
    <glyph glyph-name="X" unicode="X" horiz-adv-x="1327" 
d="M1237 1061l-451 -496l508 -565h-245l-383 430l-390 -430h-245l510 565l-441 496h240l326 -361l338 361h233z" />
    <glyph glyph-name="Y" unicode="Y" horiz-adv-x="1175" 
d="M1143 1061l-465 -584v-477h-180v477l-465 584h229l326 -412l325 412h230z" />
    <glyph glyph-name="Z" unicode="Z" horiz-adv-x="1099" 
d="M309 180h758v-180h-948l-86 141l751 740h-688v180h873l98 -141z" />
    <glyph glyph-name="bracketleft" unicode="[" horiz-adv-x="393" 
d="M313 0h-233v1061h233v-96h-100v-869h100v-96z" />
    <glyph glyph-name="bracketright" unicode="]" horiz-adv-x="393" 
d="M313 0h-233v96h100v869h-100v96h233v-1061z" />
    <glyph glyph-name="grave" unicode="`" horiz-adv-x="833" 
d="M383 1188l-227 256h245l162 -256h-180z" />
    <glyph glyph-name="a" unicode="a" 
d="M465 428h463l-232 430zM608 1061h180l578 -1061h-213l-135 248h-647l-131 -248h-205z" />
    <glyph glyph-name="b" unicode="b" horiz-adv-x="1517" 
d="M453 473v-293h491q111 0 167 30.5t56 106.5q0 41 -10 69.5t-26.5 45.5t-45 26t-58.5 12t-75 3h-499zM453 881v-228h491q170 0 170 113q0 65 -43 90t-127 25h-491zM272 0v1061h672q44 0 85 -5t91.5 -22.5t87 -46t61.5 -80.5t25 -121q0 -24 -1 -43t-5 -36.5t-6.5 -27.5
t-10 -25.5t-10.5 -21t-14 -23.5t-14 -23q51 -54 69 -82q46 -74 46 -174q0 -149 -98 -239.5t-306 -90.5h-672z" />
    <glyph glyph-name="c" unicode="c" horiz-adv-x="1517" 
d="M1282 297l80 -166q-91 -62 -168 -93q-170 -71 -371 -71q-192 0 -341.5 70t-233.5 198.5t-84 296.5q0 162 84.5 291t229 200t321.5 71q85 0 164.5 -15.5t131.5 -34t110.5 -52t81.5 -50t63 -47.5l-97 -152q-7 4 -38 25t-41 27.5t-40 25t-46.5 25.5t-46.5 21t-53.5 19.5
t-55 13t-64.5 10.5t-69 3q-206 0 -330.5 -113t-124.5 -280q0 -72 29.5 -137.5t86.5 -118.5t150.5 -85t210.5 -32q70 0 139 13t113 27.5t96 41.5t66.5 37t46.5 31z" />
    <glyph glyph-name="d" unicode="d" horiz-adv-x="1554" 
d="M444 881v-701h402q101 0 180.5 37t129.5 118t50 197q0 95 -29.5 164.5t-81.5 108.5t-114 57.5t-135 18.5h-402zM264 0v1061h582q53 0 103 -6t105 -22t102 -41t90 -66.5t73.5 -94.5t48.5 -129t18 -167q0 -133 -44 -237.5t-119.5 -168.5t-171.5 -96.5t-205 -32.5h-582z" />
    <glyph glyph-name="e" unicode="e" 
d="M459 180h774v-180h-954v1061h933v-180h-753v-244h413v-180h-413v-277z" />
    <glyph glyph-name="f" unicode="f" horiz-adv-x="1366" 
d="M936 457h-438v-457h-181v1061h924v-180h-743v-244h438v-180z" />
    <glyph glyph-name="g" unicode="g" horiz-adv-x="1478" 
d="M840 592h485v-436q-2 -1 -27.5 -19t-34.5 -23.5t-37.5 -23.5t-44.5 -26t-48.5 -24t-56.5 -24t-60.5 -19t-69 -16.5t-73.5 -9.5t-82 -4q-143 0 -264.5 45.5t-202 123t-125.5 179.5t-45 215q0 111 43.5 212.5t123.5 180t203.5 125t272.5 46.5q94 0 178 -17.5t145.5 -48
t97.5 -52.5t70 -48q7 -6 10 -8l-104 -146q-208 139 -397 139q-111 0 -201 -32t-146 -86t-86 -122.5t-30 -144.5q0 -74 30.5 -142t87 -121.5t145 -85.5t196.5 -32q176 0 352 103v162h-305v180z" />
    <glyph glyph-name="h" unicode="h" horiz-adv-x="1630" 
d="M1141 1061h180v-1061h-180v455h-652v-455h-180v1061h180v-426h652v426z" />
    <glyph glyph-name="i" unicode="i" horiz-adv-x="796" 
d="M307 1061h180v-1061h-180v1061z" />
    <glyph glyph-name="j" unicode="j" horiz-adv-x="1327" 
d="M879 1061h180v-586q0 -118 -25 -207.5t-80.5 -158.5t-153 -105.5t-233.5 -36.5q-88 0 -164 21t-125.5 51t-90.5 72t-62 75t-37 68l150 100q98 -207 331 -207q50 0 92 7.5t72 19t53.5 31t39 37t26 45t16 46.5t8 49.5t3 47t0.5 45.5v586z" />
    <glyph glyph-name="k" unicode="k" horiz-adv-x="1366" 
d="M1204 1061l-409 -389l481 -672h-221l-402 553l-198 -176v-377h-181v1061h181v-471l518 471h231z" />
    <glyph glyph-name="l" unicode="l" horiz-adv-x="1175" 
d="M446 180h648v-180h-828v1061h180v-881z" />
    <glyph glyph-name="m" unicode="m" horiz-adv-x="1781" 
d="M1292 1061h181v-1061h-181v745h-4l-397 -595l-397 595h-5v-745h-180v1061h180l402 -610z" />
    <glyph glyph-name="n" unicode="n" horiz-adv-x="1630" 
d="M1147 1061h180v-1061h-180l-664 788v-788h-180v1061h180l664 -787v787z" />
    <glyph glyph-name="o" unicode="o" horiz-adv-x="1705" 
d="M1501 530q0 -115 -44.5 -217.5t-126 -179t-205.5 -121.5t-273 -45q-147 0 -270.5 45t-205.5 121.5t-127.5 179t-45.5 217.5t44.5 217.5t126 179.5t205.5 122t273 45t273 -45t205.5 -122.5t126 -179.5t44.5 -217zM852 147q214 0 341.5 111.5t127.5 271.5q0 77 -32.5 146.5
t-91.5 122t-148.5 83.5t-196.5 31t-196.5 -31t-148.5 -83.5t-91.5 -122t-32.5 -146.5t32.5 -146.5t91.5 -122t148.5 -83.5t196.5 -31z" />
    <glyph glyph-name="p" unicode="p" horiz-adv-x="1441" 
d="M459 881v-316h411q56 0 91.5 2.5t69 11.5t51.5 26t29 45.5t11 70.5q0 26 -4.5 47.5t-10.5 37.5t-19 28t-23 20t-30.5 13t-34 8t-40.5 4.5t-42.5 1.5h-47.5h-411zM870 385h-411v-385h-180v1061h591q43 0 77.5 -2t81 -10t82.5 -22t73.5 -39.5t62.5 -60.5t40.5 -87.5
t15.5 -118.5q0 -97 -30.5 -164t-90 -104t-135 -52.5t-177.5 -15.5z" />
    <glyph glyph-name="q" unicode="q" horiz-adv-x="1705" 
d="M864 209l178 76l76 -80q94 53 148.5 140t54.5 185q0 77 -32.5 146.5t-91.5 122t-148.5 83.5t-196.5 31t-196.5 -31t-148.5 -83.5t-91.5 -122t-32.5 -146.5t32.5 -146.5t91.5 -122t148.5 -83.5t196.5 -31q38 0 61 5zM1249 66l123 -132l-176 -75l-131 131q-79 -19 -109 -21
q-17 -2 -104 -2q-147 0 -270.5 45t-205.5 121.5t-127.5 179t-45.5 217.5t44.5 217.5t126 179.5t205.5 122t273 45t273 -45t205.5 -122.5t126 -179.5t44.5 -217q0 -145 -59.5 -257t-192.5 -207z" />
    <glyph glyph-name="r" unicode="r" horiz-adv-x="1478" 
d="M457 881v-267h493q205 0 205 138q0 35 -10 59t-25.5 38t-45 21t-58.5 9t-76 2h-483zM1051 438l309 -438h-225l-306 434h-372v-434h-181v1061h656q84 0 153.5 -15.5t127 -49t90 -95t32.5 -145.5q0 -273 -284 -318z" />
    <glyph glyph-name="s" unicode="s" 
d="M1206 952l-84 -161q-105 59 -166 80q-121 42 -272 42q-146 0 -221.5 -36.5t-75.5 -104.5q0 -55 22 -81.5t95 -40t225 -13.5q117 0 206 -11t146 -33t94.5 -48.5t56.5 -64.5t25.5 -73t6.5 -81q0 -359 -523 -359q-365 0 -622 180l86 158q114 -68 161 -89q155 -69 379 -69
q324 0 324 160q0 98 -78.5 121t-388.5 29q-197 5 -303 72t-106 223q0 69 27 128.5t83 108.5t153 77t226 28q90 0 175.5 -15t161 -44t106.5 -43t81 -40z" />
    <glyph glyph-name="t" unicode="t" horiz-adv-x="1251" 
d="M1122 881h-405v-881h-180v881h-410v180h995v-180z" />
    <glyph glyph-name="u" unicode="u" horiz-adv-x="1630" 
d="M1147 1061h180v-600q0 -86 -12.5 -155t-47 -134t-90.5 -108.5t-148 -70t-214 -26.5t-213.5 26t-147.5 70t-90.5 109t-47.5 134t-13 155v600h180v-600q0 -64 6 -107.5t26 -85.5t55.5 -66.5t96.5 -39.5t148 -15t148 15t96.5 39.5t55.5 66.5t26 85.5t6 107.5v600z" />
    <glyph glyph-name="v" unicode="v" horiz-adv-x="1366" 
d="M1110 1061h205l-559 -1061h-181l-550 1061h204l439 -844z" />
    <glyph glyph-name="w" unicode="w" horiz-adv-x="1705" 
d="M1481 1061h192l-389 -1061h-180l-248 764h-4l-260 -764h-180l-375 1061h192l269 -768h4l266 768h180l248 -768h4z" />
    <glyph glyph-name="x" unicode="x" horiz-adv-x="1327" 
d="M1237 1061l-451 -496l508 -565h-245l-383 430l-390 -430h-245l510 565l-441 496h240l326 -361l338 361h233z" />
    <glyph glyph-name="y" unicode="y" horiz-adv-x="1175" 
d="M1143 1061l-465 -584v-477h-180v477l-465 584h229l326 -412l325 412h230z" />
    <glyph glyph-name="z" unicode="z" horiz-adv-x="1099" 
d="M309 180h758v-180h-948l-86 141l751 740h-688v180h873l98 -141z" />
    <glyph glyph-name="braceleft" unicode="{" horiz-adv-x="759" 
d="M596 -297v-35q-111 3 -204 73t-93 167q0 53 16 135q2 13 9.5 45.5t10.5 51.5t3 36q0 63 -45.5 111.5t-110.5 68.5v35q67 21 111.5 66.5t44.5 111.5q0 20 -23 133q-16 86 -16 136q0 98 92.5 167t204.5 74v-35q-73 -18 -111.5 -72.5t-38.5 -119.5q0 -20 9 -121
q10 -87 10 -113q0 -32 -9.5 -61.5t-20.5 -50t-34.5 -41t-37 -31.5t-43.5 -26.5t-38.5 -19t-35.5 -15.5q32 -14 51.5 -23.5t55.5 -32.5t57 -47t38 -62t17 -81q0 -29 -10 -111q-9 -106 -9 -120q0 -66 38.5 -120.5t111.5 -72.5z" />
    <glyph glyph-name="braceright" unicode="}" horiz-adv-x="759" 
d="M162 -332v35q75 18 113 72.5t38 120.5q0 42 -10 120q-8 66 -8 111q0 43 17 81t38 62t57 47t55.5 32.5t51.5 23.5q-27 12 -35.5 15.5t-38.5 19t-43.5 26.5t-37 31.5t-34.5 41t-20.5 50t-9.5 61.5q0 43 8 113q10 75 10 121q0 66 -38 120t-113 72v35q113 -5 206 -74t93 -167
q0 -45 -17 -136q-22 -108 -22 -133q0 -66 44.5 -111.5t111.5 -66.5v-35q-66 -20 -111 -68.5t-45 -111.5q0 -21 22 -133q17 -87 17 -135q0 -97 -93.5 -167t-205.5 -73z" />
    <glyph glyph-name="cent" unicode="&#xa2;" horiz-adv-x="1820" 
d="M866 147v766q-25 -4 -51 -10.5t-64.5 -21t-72 -33.5t-69 -50.5t-60.5 -69t-41 -91.5t-16 -117q0 -75 30 -139t73 -103.5t97.5 -69t96.5 -43t77 -18.5zM1030 -33v-184h-164v184q-34 4 -73 12.5t-95 28t-106.5 47t-103.5 72t-91 99.5t-62 134.5t-24 171.5q0 87 23.5 163
t61.5 130.5t89 100t102.5 74.5t106 50t96.5 31t76 13v184h164v-184q136 -14 258.5 -68t208.5 -125l-98 -151q-95 68 -194.5 115.5t-174.5 47.5v-766q112 9 204.5 43t195.5 105l79 -166q-241 -162 -479 -162z" />
    <glyph glyph-name="sterling" unicode="&#xa3;" horiz-adv-x="1445" 
d="M526 131h631v-131h-924v131h150v354h-150v121h150v123q0 71 23.5 133t70.5 113t128 80.5t188 29.5q106 0 187 -26.5t128 -73t70.5 -102.5t23.5 -121h-151q0 34 -13 66t-40 62t-78 48t-119 18q-141 0 -208 -69.5t-67 -179.5v-101h308v-121h-308v-354z" />
    <glyph glyph-name="yen" unicode="&#xa5;" horiz-adv-x="1445" 
d="M1137 401h-349v-401h-143v401h-346v99h346l-98 118h-248v97h170l-287 346h172l367 -447l366 447h175l-291 -346h166v-97h-246l-103 -118h349v-99z" />
    <glyph glyph-name="dieresis" unicode="&#xa8;" horiz-adv-x="833" 
d="M696 1188h-188v205h188v-205zM326 1188h-189v205h189v-205z" />
    <glyph glyph-name="copyright" unicode="&#xa9;" horiz-adv-x="1511" 
d="M1057 344l-15 -10q-4 -2 -14.5 -9.5t-17.5 -11.5q-100 -57 -234 -57q-150 0 -242 79.5t-92 209.5q0 123 92.5 204.5t229.5 81.5q95 0 176 -36q24 -11 57 -31q23 -15 56 -41l-64 -98l-26 18q-29 19 -39 25q-26 15 -45 22q-51 23 -115 23q-91 0 -148 -48.5t-57 -125.5
q0 -66 55.5 -116t161.5 -50q92 0 182 49q8 5 24 15.5t24 15.5zM1212 709q-44 90 -102 145q-62 56 -156 96q-87 37 -188 37q-99 0 -186 -37q-184 -74 -261 -241q-38 -84 -38 -174q0 -122 65 -228q64 -101 178 -164q110 -61 242 -61q134 0 244 61q111 62 176 164
q65 106 65 228q0 88 -39 174zM1337 358q-29 -83 -86 -155q-51 -62 -131 -119q-74 -53 -166 -80q-88 -27 -188 -27t-188 27q-92 27 -166 80q-73 52 -131 119q-57 72 -86 155q-31 85 -31 177q0 88 31 176q30 84 86 153q64 74 131 119q74 53 166 80q95 29 188 29q118 0 233 -45
q110 -43 193 -117q79 -73 127 -178q49 -101 49 -217q0 -92 -31 -177z" />
    <glyph glyph-name="guillemotleft" unicode="&#xab;" horiz-adv-x="1138" 
d="M1022 932l-236 -400l236 -395h-164l-276 395l276 400h164zM547 932l-236 -400l236 -395h-164l-277 395l277 400h164z" />
    <glyph glyph-name="acute" unicode="&#xb4;" horiz-adv-x="833" 
d="M498 1444h245l-227 -256h-180z" />
    <glyph glyph-name="guillemotright" unicode="&#xbb;" horiz-adv-x="1138" 
d="M268 932l277 -400l-277 -395h-164l236 395l-236 400h164zM743 932l277 -400l-277 -395h-163l235 395l-235 400h163z" />
    <glyph glyph-name="onequarter" unicode="&#xbc;" horiz-adv-x="1957" 
d="M1503 514l-344 -250h344v250zM377 414h-117v647h117v-647zM1331 1147l-878 -1233h-131l878 1233h131zM1772 156h-152v-158h-117v158h-473l-51 98l530 391h111v-381h152v-108z" />
    <glyph glyph-name="onehalf" unicode="&#xbd;" horiz-adv-x="1957" 
d="M383 414h-117v647h117v-647zM1315 1147l-879 -1233h-131l879 1233h131zM1729 -2h-646q0 35 3 66t11.5 77.5t28.5 84.5t50.5 74t81.5 59.5t116 29.5l142 14q44 3 70 21t26 45q0 34 -42 62t-138 28q-94 0 -162 -20q-23 -6 -121 -50l-51 93q92 49 164.5 67.5t158.5 18.5
q35 0 71.5 -4.5t80.5 -18t77.5 -34t56 -57t22.5 -83.5q0 -79 -61.5 -123t-145.5 -51l-144 -14q-36 -4 -65 -17.5t-46.5 -30t-31.5 -41.5t-20 -43.5t-13 -44.5h527v-108z" />
    <glyph glyph-name="threequarters" unicode="&#xbe;" horiz-adv-x="1957" 
d="M1583 514l-346 -250h346v250zM459 391q-112 0 -193 25.5t-164 79.5l60 86q13 -6 49 -29q34 -17 57 -25q82 -28 189 -28q121 0 191.5 27t70.5 65q0 49 -65 77.5t-160 28.5h-76v107h76q72 0 127 25t55 67q0 8 -4 17t-17.5 21t-35 21t-60 15t-88.5 6q-59 0 -125 -19
q-3 -1 -113 -40l-51 92q75 37 138.5 55t148.5 18q152 0 238 -51.5t86 -130.5q0 -50 -31 -98q-18 -25 -43 -43q33 -19 67 -49q50 -50 50 -117q0 -93 -103 -148t-274 -55zM1536 1147l-881 -1233h-131l881 1233h131zM1851 156h-151v-158h-117v158h-475l-51 98l530 391h113v-381
h151v-108z" />
    <glyph glyph-name="Agrave" unicode="&#xc0;" 
d="M709 1188l-228 256h246l162 -256h-180zM465 428h463l-232 430zM608 1061h180l578 -1061h-213l-135 248h-647l-131 -248h-205z" />
    <glyph glyph-name="Aacute" unicode="&#xc1;" 
d="M844 1444h246l-228 -256h-180zM465 428h463l-232 430zM608 1061h180l578 -1061h-213l-135 248h-647l-131 -248h-205z" />
    <glyph glyph-name="Acircumflex" unicode="&#xc2;" 
d="M578 1188h-185l191 256h229l195 -256h-185l-125 151zM465 428h463l-232 430zM608 1061h180l578 -1061h-213l-135 248h-647l-131 -248h-205z" />
    <glyph glyph-name="Atilde" unicode="&#xc3;" 
d="M489 1188h-131q0 37 6.5 71t23 71.5t53 60t89.5 22.5q67 0 170 -35q8 -2 37 -11.5t41 -12.5t32 -7t34 -4q24 0 45.5 21t21.5 49h131q0 -215 -178 -215q-64 0 -180 33t-133 33q-30 0 -46 -23t-16 -53zM465 428h463l-232 430zM608 1061h180l578 -1061h-213l-135 248h-647
l-131 -248h-205z" />
    <glyph glyph-name="Adieresis" unicode="&#xc4;" 
d="M981 1188h-188v205h188v-205zM610 1188h-188v205h188v-205zM465 428h463l-232 430zM608 1061h180l578 -1061h-213l-135 248h-647l-131 -248h-205z" />
    <glyph glyph-name="Aring" unicode="&#xc5;" 
d="M715 1538q-49 0 -85 -35t-36 -82q0 -48 35 -82t86 -34q46 0 80 33t34 83q0 47 -33 82t-81 35zM477 1421q0 97 68.5 165.5t169.5 68.5q96 0 163.5 -69.5t67.5 -164.5q0 -96 -68.5 -164.5t-162.5 -68.5q-98 0 -168 68t-70 165zM465 428h463l-232 430zM608 1061h180
l578 -1061h-213l-135 248h-647l-131 -248h-205z" />
    <glyph glyph-name="Ccedilla" unicode="&#xc7;" horiz-adv-x="1517" 
d="M862 -33l-74 -102q22 -1 33.5 -1.5t39 -4t45 -8.5t41 -16t37.5 -25.5t24 -38t10 -52.5q0 -89 -83 -141.5t-187 -52.5q-111 0 -250 59l49 101q84 -41 168 -41q43 0 76.5 15t33.5 48q0 30 -26 49t-60 19q-24 0 -94 -17l-43 54l115 159q-250 28 -401.5 179.5t-151.5 381.5
q0 162 84.5 291t229 200t321.5 71q85 0 164.5 -15.5t131.5 -34t110.5 -52t81.5 -50t63 -47.5l-97 -152q-7 4 -38 25t-41 27.5t-40 25t-46.5 25.5t-46.5 21t-53.5 19.5t-55 13t-64.5 10.5t-69 3q-206 0 -330.5 -113t-124.5 -280q0 -72 29.5 -137.5t86.5 -118.5t150.5 -85
t210.5 -32q70 0 139 13t113 27.5t96 41.5t66.5 37t46.5 31l80 -166q-34 -23 -60.5 -39.5t-77.5 -41.5t-100 -41t-119 -28.5t-143 -13.5z" />
    <glyph glyph-name="Egrave" unicode="&#xc8;" 
d="M750 1188l-228 256h246l162 -256h-180zM459 180h774v-180h-954v1061h933v-180h-753v-244h413v-180h-413v-277z" />
    <glyph glyph-name="Eacute" unicode="&#xc9;" 
d="M844 1444h246l-228 -256h-180zM459 180h774v-180h-954v1061h933v-180h-753v-244h413v-180h-413v-277z" />
    <glyph glyph-name="Ecircumflex" unicode="&#xca;" 
d="M598 1188h-184l190 256h230l194 -256h-184l-125 151zM459 180h774v-180h-954v1061h933v-180h-753v-244h413v-180h-413v-277z" />
    <glyph glyph-name="Edieresis" unicode="&#xcb;" 
d="M1012 1188h-189v205h189v-205zM641 1188h-188v205h188v-205zM459 180h774v-180h-954v1061h933v-180h-753v-244h413v-180h-413v-277z" />
    <glyph glyph-name="Igrave" unicode="&#xcc;" horiz-adv-x="796" 
d="M406 1188l-228 256h246l162 -256h-180zM307 1061h180v-1061h-180v1061z" />
    <glyph glyph-name="Iacute" unicode="&#xcd;" horiz-adv-x="796" 
d="M489 1444h246l-227 -256h-180zM307 1061h180v-1061h-180v1061z" />
    <glyph glyph-name="Icircumflex" unicode="&#xce;" horiz-adv-x="796" 
d="M274 1188h-184l191 256h229l195 -256h-185l-125 151zM307 1061h180v-1061h-180v1061z" />
    <glyph glyph-name="Idieresis" unicode="&#xcf;" horiz-adv-x="796" 
d="M698 1188h-188v205h188v-205zM328 1188h-189v205h189v-205zM307 1061h180v-1061h-180v1061z" />
    <glyph glyph-name="Ntilde" unicode="&#xd1;" horiz-adv-x="1630" 
d="M625 1188h-131q0 37 6.5 71t23 71.5t53 60t89.5 22.5q67 0 170 -35q10 -3 37.5 -11.5t40 -12.5t32 -7.5t33.5 -3.5q24 0 46 21t22 49h131q0 -215 -179 -215q-64 0 -180.5 33t-132.5 33q-30 0 -45.5 -23t-15.5 -53zM1147 1061h180v-1061h-180l-664 788v-788h-180v1061h180
l664 -787v787z" />
    <glyph glyph-name="Ograve" unicode="&#xd2;" horiz-adv-x="1705" 
d="M860 1188l-227 256h246l161 -256h-180zM1501 530q0 -115 -44.5 -217.5t-126 -179t-205.5 -121.5t-273 -45q-147 0 -270.5 45t-205.5 121.5t-127.5 179t-45.5 217.5t44.5 217.5t126 179.5t205.5 122t273 45t273 -45t205.5 -122.5t126 -179.5t44.5 -217zM852 147
q214 0 341.5 111.5t127.5 271.5q0 77 -32.5 146.5t-91.5 122t-148.5 83.5t-196.5 31t-196.5 -31t-148.5 -83.5t-91.5 -122t-32.5 -146.5t32.5 -146.5t91.5 -122t148.5 -83.5t196.5 -31z" />
    <glyph glyph-name="Oacute" unicode="&#xd3;" horiz-adv-x="1705" 
d="M954 1444h246l-227 -256h-180zM1501 530q0 -115 -44.5 -217.5t-126 -179t-205.5 -121.5t-273 -45q-147 0 -270.5 45t-205.5 121.5t-127.5 179t-45.5 217.5t44.5 217.5t126 179.5t205.5 122t273 45t273 -45t205.5 -122.5t126 -179.5t44.5 -217zM852 147q214 0 341.5 111.5
t127.5 271.5q0 77 -32.5 146.5t-91.5 122t-148.5 83.5t-196.5 31t-196.5 -31t-148.5 -83.5t-91.5 -122t-32.5 -146.5t32.5 -146.5t91.5 -122t148.5 -83.5t196.5 -31z" />
    <glyph glyph-name="Ocircumflex" unicode="&#xd4;" horiz-adv-x="1705" 
d="M729 1188h-184l190 256h230l194 -256h-184l-125 151zM1501 530q0 -115 -44.5 -217.5t-126 -179t-205.5 -121.5t-273 -45q-147 0 -270.5 45t-205.5 121.5t-127.5 179t-45.5 217.5t44.5 217.5t126 179.5t205.5 122t273 45t273 -45t205.5 -122.5t126 -179.5t44.5 -217z
M852 147q214 0 341.5 111.5t127.5 271.5q0 77 -32.5 146.5t-91.5 122t-148.5 83.5t-196.5 31t-196.5 -31t-148.5 -83.5t-91.5 -122t-32.5 -146.5t32.5 -146.5t91.5 -122t148.5 -83.5t196.5 -31z" />
    <glyph glyph-name="Otilde" unicode="&#xd5;" horiz-adv-x="1705" 
d="M662 1188h-132q0 37 6.5 71t23 71.5t53 60t89.5 22.5q67 0 170 -35q8 -2 37 -11.5t41 -12.5t32 -7t34 -4q24 0 45.5 21t21.5 49h131q0 -215 -178 -215q-64 0 -180 33t-133 33q-30 0 -45.5 -23t-15.5 -53zM1501 530q0 -115 -44.5 -217.5t-126 -179t-205.5 -121.5t-273 -45
q-147 0 -270.5 45t-205.5 121.5t-127.5 179t-45.5 217.5t44.5 217.5t126 179.5t205.5 122t273 45t273 -45t205.5 -122.5t126 -179.5t44.5 -217zM852 147q214 0 341.5 111.5t127.5 271.5q0 77 -32.5 146.5t-91.5 122t-148.5 83.5t-196.5 31t-196.5 -31t-148.5 -83.5
t-91.5 -122t-32.5 -146.5t32.5 -146.5t91.5 -122t148.5 -83.5t196.5 -31z" />
    <glyph glyph-name="Odieresis" unicode="&#xd6;" horiz-adv-x="1705" 
d="M1143 1188h-189v205h189v-205zM772 1188h-188v205h188v-205zM1501 530q0 -115 -44.5 -217.5t-126 -179t-205.5 -121.5t-273 -45q-147 0 -270.5 45t-205.5 121.5t-127.5 179t-45.5 217.5t44.5 217.5t126 179.5t205.5 122t273 45t273 -45t205.5 -122.5t126 -179.5
t44.5 -217zM852 147q214 0 341.5 111.5t127.5 271.5q0 77 -32.5 146.5t-91.5 122t-148.5 83.5t-196.5 31t-196.5 -31t-148.5 -83.5t-91.5 -122t-32.5 -146.5t32.5 -146.5t91.5 -122t148.5 -83.5t196.5 -31z" />
    <glyph glyph-name="multiply" unicode="&#xd7;" horiz-adv-x="1140" 
d="M995 86l-102 -98l-344 303l-342 -303l-101 96l338 299l-340 301l105 98l342 -303l344 303l98 -98l-338 -299z" />
    <glyph glyph-name="Ugrave" unicode="&#xd9;" horiz-adv-x="1630" 
d="M803 1188l-228 256h246l162 -256h-180zM1147 1061h180v-600q0 -86 -12.5 -155t-47 -134t-90.5 -108.5t-148 -70t-214 -26.5t-213.5 26t-147.5 70t-90.5 109t-47.5 134t-13 155v600h180v-600q0 -64 6 -107.5t26 -85.5t55.5 -66.5t96.5 -39.5t148 -15t148 15t96.5 39.5
t55.5 66.5t26 85.5t6 107.5v600z" />
    <glyph glyph-name="Uacute" unicode="&#xda;" horiz-adv-x="1630" 
d="M897 1444h246l-228 -256h-180zM1147 1061h180v-600q0 -86 -12.5 -155t-47 -134t-90.5 -108.5t-148 -70t-214 -26.5t-213.5 26t-147.5 70t-90.5 109t-47.5 134t-13 155v600h180v-600q0 -64 6 -107.5t26 -85.5t55.5 -66.5t96.5 -39.5t148 -15t148 15t96.5 39.5t55.5 66.5
t26 85.5t6 107.5v600z" />
    <glyph glyph-name="Ucircumflex" unicode="&#xdb;" horiz-adv-x="1630" 
d="M692 1188h-184l190 256h230l194 -256h-184l-125 151zM1147 1061h180v-600q0 -86 -12.5 -155t-47 -134t-90.5 -108.5t-148 -70t-214 -26.5t-213.5 26t-147.5 70t-90.5 109t-47.5 134t-13 155v600h180v-600q0 -64 6 -107.5t26 -85.5t55.5 -66.5t96.5 -39.5t148 -15t148 15
t96.5 39.5t55.5 66.5t26 85.5t6 107.5v600z" />
    <glyph glyph-name="Udieresis" unicode="&#xdc;" horiz-adv-x="1630" 
d="M1106 1188h-188v205h188v-205zM735 1188h-188v205h188v-205zM1147 1061h180v-600q0 -86 -12.5 -155t-47 -134t-90.5 -108.5t-148 -70t-214 -26.5t-213.5 26t-147.5 70t-90.5 109t-47.5 134t-13 155v600h180v-600q0 -64 6 -107.5t26 -85.5t55.5 -66.5t96.5 -39.5t148 -15
t148 15t96.5 39.5t55.5 66.5t26 85.5t6 107.5v600z" />
    <glyph glyph-name="Yacute" unicode="&#xdd;" horiz-adv-x="1175" 
d="M690 1444h246l-227 -256h-181zM1143 1061l-465 -584v-477h-180v477l-465 584h229l326 -412l325 412h230z" />
    <glyph glyph-name="agrave" unicode="&#xe0;" 
d="M709 1188l-228 256h246l162 -256h-180zM465 428h463l-232 430zM608 1061h180l578 -1061h-213l-135 248h-647l-131 -248h-205z" />
    <glyph glyph-name="aacute" unicode="&#xe1;" 
d="M844 1444h246l-228 -256h-180zM465 428h463l-232 430zM608 1061h180l578 -1061h-213l-135 248h-647l-131 -248h-205z" />
    <glyph glyph-name="acircumflex" unicode="&#xe2;" 
d="M578 1188h-185l191 256h229l195 -256h-185l-125 151zM465 428h463l-232 430zM608 1061h180l578 -1061h-213l-135 248h-647l-131 -248h-205z" />
    <glyph glyph-name="atilde" unicode="&#xe3;" 
d="M489 1188h-131q0 37 6.5 71t23 71.5t53 60t89.5 22.5q67 0 170 -35q8 -2 37 -11.5t41 -12.5t32 -7t34 -4q24 0 45.5 21t21.5 49h131q0 -215 -178 -215q-64 0 -180 33t-133 33q-30 0 -46 -23t-16 -53zM465 428h463l-232 430zM608 1061h180l578 -1061h-213l-135 248h-647
l-131 -248h-205z" />
    <glyph glyph-name="adieresis" unicode="&#xe4;" 
d="M981 1188h-188v205h188v-205zM610 1188h-188v205h188v-205zM465 428h463l-232 430zM608 1061h180l578 -1061h-213l-135 248h-647l-131 -248h-205z" />
    <glyph glyph-name="aring" unicode="&#xe5;" 
d="M715 1538q-49 0 -85 -35t-36 -82q0 -48 35 -82t86 -34q46 0 80 33t34 83q0 47 -33 82t-81 35zM477 1421q0 97 68.5 165.5t169.5 68.5q96 0 163.5 -69.5t67.5 -164.5q0 -96 -68.5 -164.5t-162.5 -68.5q-98 0 -168 68t-70 165zM465 428h463l-232 430zM608 1061h180
l578 -1061h-213l-135 248h-647l-131 -248h-205z" />
    <glyph glyph-name="ccedilla" unicode="&#xe7;" horiz-adv-x="1517" 
d="M862 -33l-74 -102q22 -1 33.5 -1.5t39 -4t45 -8.5t41 -16t37.5 -25.5t24 -38t10 -52.5q0 -89 -83 -141.5t-187 -52.5q-111 0 -250 59l49 101q84 -41 168 -41q43 0 76.5 15t33.5 48q0 30 -26 49t-60 19q-24 0 -94 -17l-43 54l115 159q-250 28 -401.5 179.5t-151.5 381.5
q0 162 84.5 291t229 200t321.5 71q85 0 164.5 -15.5t131.5 -34t110.5 -52t81.5 -50t63 -47.5l-97 -152q-7 4 -38 25t-41 27.5t-40 25t-46.5 25.5t-46.5 21t-53.5 19.5t-55 13t-64.5 10.5t-69 3q-206 0 -330.5 -113t-124.5 -280q0 -72 29.5 -137.5t86.5 -118.5t150.5 -85
t210.5 -32q70 0 139 13t113 27.5t96 41.5t66.5 37t46.5 31l80 -166q-34 -23 -60.5 -39.5t-77.5 -41.5t-100 -41t-119 -28.5t-143 -13.5z" />
    <glyph glyph-name="egrave" unicode="&#xe8;" 
d="M750 1188l-228 256h246l162 -256h-180zM459 180h774v-180h-954v1061h933v-180h-753v-244h413v-180h-413v-277z" />
    <glyph glyph-name="eacute" unicode="&#xe9;" 
d="M844 1444h246l-228 -256h-180zM459 180h774v-180h-954v1061h933v-180h-753v-244h413v-180h-413v-277z" />
    <glyph glyph-name="ecircumflex" unicode="&#xea;" 
d="M598 1188h-184l190 256h230l194 -256h-184l-125 151zM459 180h774v-180h-954v1061h933v-180h-753v-244h413v-180h-413v-277z" />
    <glyph glyph-name="edieresis" unicode="&#xeb;" 
d="M1012 1188h-189v205h189v-205zM641 1188h-188v205h188v-205zM459 180h774v-180h-954v1061h933v-180h-753v-244h413v-180h-413v-277z" />
    <glyph glyph-name="igrave" unicode="&#xec;" horiz-adv-x="796" 
d="M406 1188l-228 256h246l162 -256h-180zM307 1061h180v-1061h-180v1061z" />
    <glyph glyph-name="iacute" unicode="&#xed;" horiz-adv-x="796" 
d="M489 1444h246l-227 -256h-180zM307 1061h180v-1061h-180v1061z" />
    <glyph glyph-name="icircumflex" unicode="&#xee;" horiz-adv-x="796" 
d="M274 1188h-184l191 256h229l195 -256h-185l-125 151zM307 1061h180v-1061h-180v1061z" />
    <glyph glyph-name="idieresis" unicode="&#xef;" horiz-adv-x="796" 
d="M698 1188h-188v205h188v-205zM328 1188h-189v205h189v-205zM307 1061h180v-1061h-180v1061z" />
    <glyph glyph-name="ntilde" unicode="&#xf1;" horiz-adv-x="1630" 
d="M625 1188h-131q0 37 6.5 71t23 71.5t53 60t89.5 22.5q67 0 170 -35q10 -3 37.5 -11.5t40 -12.5t32 -7.5t33.5 -3.5q24 0 46 21t22 49h131q0 -215 -179 -215q-64 0 -180.5 33t-132.5 33q-30 0 -45.5 -23t-15.5 -53zM1147 1061h180v-1061h-180l-664 788v-788h-180v1061h180
l664 -787v787z" />
    <glyph glyph-name="ograve" unicode="&#xf2;" horiz-adv-x="1705" 
d="M860 1188l-227 256h246l161 -256h-180zM1501 530q0 -115 -44.5 -217.5t-126 -179t-205.5 -121.5t-273 -45q-147 0 -270.5 45t-205.5 121.5t-127.5 179t-45.5 217.5t44.5 217.5t126 179.5t205.5 122t273 45t273 -45t205.5 -122.5t126 -179.5t44.5 -217zM852 147
q214 0 341.5 111.5t127.5 271.5q0 77 -32.5 146.5t-91.5 122t-148.5 83.5t-196.5 31t-196.5 -31t-148.5 -83.5t-91.5 -122t-32.5 -146.5t32.5 -146.5t91.5 -122t148.5 -83.5t196.5 -31z" />
    <glyph glyph-name="oacute" unicode="&#xf3;" horiz-adv-x="1705" 
d="M954 1444h246l-227 -256h-180zM1501 530q0 -115 -44.5 -217.5t-126 -179t-205.5 -121.5t-273 -45q-147 0 -270.5 45t-205.5 121.5t-127.5 179t-45.5 217.5t44.5 217.5t126 179.5t205.5 122t273 45t273 -45t205.5 -122.5t126 -179.5t44.5 -217zM852 147q214 0 341.5 111.5
t127.5 271.5q0 77 -32.5 146.5t-91.5 122t-148.5 83.5t-196.5 31t-196.5 -31t-148.5 -83.5t-91.5 -122t-32.5 -146.5t32.5 -146.5t91.5 -122t148.5 -83.5t196.5 -31z" />
    <glyph glyph-name="ocircumflex" unicode="&#xf4;" horiz-adv-x="1705" 
d="M729 1188h-184l190 256h230l194 -256h-184l-125 151zM1501 530q0 -115 -44.5 -217.5t-126 -179t-205.5 -121.5t-273 -45q-147 0 -270.5 45t-205.5 121.5t-127.5 179t-45.5 217.5t44.5 217.5t126 179.5t205.5 122t273 45t273 -45t205.5 -122.5t126 -179.5t44.5 -217z
M852 147q214 0 341.5 111.5t127.5 271.5q0 77 -32.5 146.5t-91.5 122t-148.5 83.5t-196.5 31t-196.5 -31t-148.5 -83.5t-91.5 -122t-32.5 -146.5t32.5 -146.5t91.5 -122t148.5 -83.5t196.5 -31z" />
    <glyph glyph-name="otilde" unicode="&#xf5;" horiz-adv-x="1705" 
d="M662 1188h-132q0 37 6.5 71t23 71.5t53 60t89.5 22.5q67 0 170 -35q8 -2 37 -11.5t41 -12.5t32 -7t34 -4q24 0 45.5 21t21.5 49h131q0 -215 -178 -215q-64 0 -180 33t-133 33q-30 0 -45.5 -23t-15.5 -53zM1501 530q0 -115 -44.5 -217.5t-126 -179t-205.5 -121.5t-273 -45
q-147 0 -270.5 45t-205.5 121.5t-127.5 179t-45.5 217.5t44.5 217.5t126 179.5t205.5 122t273 45t273 -45t205.5 -122.5t126 -179.5t44.5 -217zM852 147q214 0 341.5 111.5t127.5 271.5q0 77 -32.5 146.5t-91.5 122t-148.5 83.5t-196.5 31t-196.5 -31t-148.5 -83.5
t-91.5 -122t-32.5 -146.5t32.5 -146.5t91.5 -122t148.5 -83.5t196.5 -31z" />
    <glyph glyph-name="odieresis" unicode="&#xf6;" horiz-adv-x="1705" 
d="M1143 1188h-189v205h189v-205zM772 1188h-188v205h188v-205zM1501 530q0 -115 -44.5 -217.5t-126 -179t-205.5 -121.5t-273 -45q-147 0 -270.5 45t-205.5 121.5t-127.5 179t-45.5 217.5t44.5 217.5t126 179.5t205.5 122t273 45t273 -45t205.5 -122.5t126 -179.5
t44.5 -217zM852 147q214 0 341.5 111.5t127.5 271.5q0 77 -32.5 146.5t-91.5 122t-148.5 83.5t-196.5 31t-196.5 -31t-148.5 -83.5t-91.5 -122t-32.5 -146.5t32.5 -146.5t91.5 -122t148.5 -83.5t196.5 -31z" />
    <glyph glyph-name="ugrave" unicode="&#xf9;" horiz-adv-x="1630" 
d="M803 1188l-228 256h246l162 -256h-180zM1147 1061h180v-600q0 -86 -12.5 -155t-47 -134t-90.5 -108.5t-148 -70t-214 -26.5t-213.5 26t-147.5 70t-90.5 109t-47.5 134t-13 155v600h180v-600q0 -64 6 -107.5t26 -85.5t55.5 -66.5t96.5 -39.5t148 -15t148 15t96.5 39.5
t55.5 66.5t26 85.5t6 107.5v600z" />
    <glyph glyph-name="uacute" unicode="&#xfa;" horiz-adv-x="1630" 
d="M897 1444h246l-228 -256h-180zM1147 1061h180v-600q0 -86 -12.5 -155t-47 -134t-90.5 -108.5t-148 -70t-214 -26.5t-213.5 26t-147.5 70t-90.5 109t-47.5 134t-13 155v600h180v-600q0 -64 6 -107.5t26 -85.5t55.5 -66.5t96.5 -39.5t148 -15t148 15t96.5 39.5t55.5 66.5
t26 85.5t6 107.5v600z" />
    <glyph glyph-name="ucircumflex" unicode="&#xfb;" horiz-adv-x="1630" 
d="M692 1188h-184l190 256h230l194 -256h-184l-125 151zM1147 1061h180v-600q0 -86 -12.5 -155t-47 -134t-90.5 -108.5t-148 -70t-214 -26.5t-213.5 26t-147.5 70t-90.5 109t-47.5 134t-13 155v600h180v-600q0 -64 6 -107.5t26 -85.5t55.5 -66.5t96.5 -39.5t148 -15t148 15
t96.5 39.5t55.5 66.5t26 85.5t6 107.5v600z" />
    <glyph glyph-name="udieresis" unicode="&#xfc;" horiz-adv-x="1630" 
d="M1106 1188h-188v205h188v-205zM735 1188h-188v205h188v-205zM1147 1061h180v-600q0 -86 -12.5 -155t-47 -134t-90.5 -108.5t-148 -70t-214 -26.5t-213.5 26t-147.5 70t-90.5 109t-47.5 134t-13 155v600h180v-600q0 -64 6 -107.5t26 -85.5t55.5 -66.5t96.5 -39.5t148 -15
t148 15t96.5 39.5t55.5 66.5t26 85.5t6 107.5v600z" />
    <glyph glyph-name="yacute" unicode="&#xfd;" horiz-adv-x="1175" 
d="M690 1444h246l-227 -256h-181zM1143 1061l-465 -584v-477h-180v477l-465 584h229l326 -412l325 412h230z" />
    <glyph glyph-name="ydieresis" unicode="&#xff;" horiz-adv-x="1175" 
d="M879 1188h-189v205h189v-205zM508 1188h-189v205h189v-205zM1143 1061l-465 -584v-477h-180v477l-465 584h229l326 -412l325 412h230z" />
    <glyph glyph-name="dotlessi" unicode="&#x131;" horiz-adv-x="796" 
d="M307 1061h180v-1061h-180v1061z" />
    <glyph glyph-name="Scaron" unicode="&#x160;" 
d="M594 1188l-191 256h185l121 -152l125 152h184l-195 -256h-229zM1206 952l-84 -161q-105 59 -166 80q-121 42 -272 42q-146 0 -221.5 -36.5t-75.5 -104.5q0 -55 22 -81.5t95 -40t225 -13.5q117 0 206 -11t146 -33t94.5 -48.5t56.5 -64.5t25.5 -73t6.5 -81
q0 -359 -523 -359q-365 0 -622 180l86 158q114 -68 161 -89q155 -69 379 -69q324 0 324 160q0 98 -78.5 121t-388.5 29q-197 5 -303 72t-106 223q0 69 27 128.5t83 108.5t153 77t226 28q90 0 175.5 -15t161 -44t106.5 -43t81 -40z" />
    <glyph glyph-name="scaron" unicode="&#x161;" 
d="M594 1188l-191 256h185l121 -152l125 152h184l-195 -256h-229zM1206 952l-84 -161q-105 59 -166 80q-121 42 -272 42q-146 0 -221.5 -36.5t-75.5 -104.5q0 -55 22 -81.5t95 -40t225 -13.5q117 0 206 -11t146 -33t94.5 -48.5t56.5 -64.5t25.5 -73t6.5 -81
q0 -359 -523 -359q-365 0 -622 180l86 158q114 -68 161 -89q155 -69 379 -69q324 0 324 160q0 98 -78.5 121t-388.5 29q-197 5 -303 72t-106 223q0 69 27 128.5t83 108.5t153 77t226 28q90 0 175.5 -15t161 -44t106.5 -43t81 -40z" />
    <glyph glyph-name="Ydieresis" unicode="&#x178;" horiz-adv-x="1175" 
d="M879 1188h-189v205h189v-205zM508 1188h-189v205h189v-205zM1143 1061l-465 -584v-477h-180v477l-465 584h229l326 -412l325 412h230z" />
    <glyph glyph-name="Zcaron" unicode="&#x17d;" horiz-adv-x="1099" 
d="M453 1188l-191 256h184l121 -152l125 152h185l-195 -256h-229zM309 180h758v-180h-948l-86 141l751 740h-688v180h873l98 -141z" />
    <glyph glyph-name="zcaron" unicode="&#x17e;" horiz-adv-x="1099" 
d="M453 1188l-191 256h184l121 -152l125 152h185l-195 -256h-229zM309 180h758v-180h-948l-86 141l751 740h-688v180h873l98 -141z" />
    <glyph glyph-name="florin" unicode="&#x192;" horiz-adv-x="1144" 
d="M877 631h-256l-62 -445q-8 -60 -13.5 -95t-14.5 -80.5t-18.5 -70.5t-24.5 -56.5t-33 -47.5t-43.5 -34t-57.5 -25.5t-72.5 -13t-91.5 -5.5q-32 0 -94 4l27 132h70q30 0 53.5 3.5t42.5 8t34 17t26 23t20 32.5t15 39.5t12 51t10 59t10 71.5l61 432h-252l23 117h246l18 110
q18 106 89.5 166.5t195.5 60.5q58 0 164 -8l-23 -125q-49 6 -100 6q-48 0 -83.5 -12t-54.5 -28t-32.5 -42.5t-17 -45t-7.5 -46.5t-6 -36h258z" />
    <glyph glyph-name="circumflex" unicode="&#x2c6;" horiz-adv-x="833" 
d="M293 1188h-184l190 256h229l195 -256h-184l-125 151z" />
    <glyph glyph-name="caron" unicode="&#x2c7;" horiz-adv-x="833" 
d="M299 1188l-190 256h184l121 -152l125 152h184l-195 -256h-229z" />
    <glyph glyph-name="ring" unicode="&#x2da;" horiz-adv-x="833" 
d="M420 1538q-49 0 -85 -35t-36 -82q0 -48 35 -82t86 -34q46 0 80.5 33t34.5 83q0 47 -33.5 82t-81.5 35zM182 1421q0 97 68.5 165.5t169.5 68.5q96 0 163.5 -69.5t67.5 -164.5q0 -96 -68.5 -164.5t-162.5 -68.5q-98 0 -168 68t-70 165z" />
    <glyph glyph-name="tilde" unicode="&#x2dc;" horiz-adv-x="833" 
d="M205 1188h-131q0 37 6.5 71t23 71.5t53 60t89.5 22.5q67 0 170 -35q10 -3 37.5 -11.5t40 -12.5t32 -7.5t33.5 -3.5q24 0 46 21t22 49h131q0 -215 -178 -215q-64 0 -181 33t-133 33q-30 0 -45.5 -23t-15.5 -53z" />
    <glyph glyph-name="endash" unicode="&#x2013;" horiz-adv-x="538" 
d="M43 461h459v-107h-459v107z" />
    <glyph glyph-name="emdash" unicode="&#x2014;" horiz-adv-x="1048" 
d="M43 461h961v-107h-961v107z" />
    <glyph glyph-name="quoteleft" unicode="&#x2018;" horiz-adv-x="550" 
d="M319 707l-10 -17q-7 3 -24 13t-44 32.5t-50 49.5t-39.5 66.5t-16.5 80.5q0 69 39 110t86 41q34 0 58 -25t24 -59q0 -62 -51 -84q-13 -5 -41.5 -7t-42.5 -9t-14 -25q0 -66 126 -167z" />
    <glyph glyph-name="quoteright" unicode="&#x2019;" horiz-adv-x="550" 
d="M240 690l-9 17q91 73 116 124q11 23 11 43q0 18 -14 25t-42.5 9t-41.5 7q-51 20 -51 84q0 34 23.5 59t58.5 25q47 0 85 -41t38 -110q0 -51 -24 -98t-57 -76.5t-57.5 -46.5t-35.5 -21z" />
    <glyph glyph-name="quotedblleft" unicode="&#x201c;" horiz-adv-x="944" 
d="M332 707l-10 -17q-8 3 -25.5 13.5t-44 32.5t-49.5 49t-39.5 66.5t-16.5 80.5q0 69 38.5 110t86.5 41q34 0 58 -25t24 -59q0 -63 -53 -84q-13 -5 -41.5 -7t-42.5 -9t-14 -25q0 -71 129 -167zM707 707l-11 -17q-7 3 -24 13t-44 32.5t-50 49.5t-39.5 66.5t-16.5 80.5
q0 69 39 110t86 41q34 0 58 -25t24 -59q0 -64 -51 -84q-13 -5 -41.5 -7t-42.5 -9t-14 -25q0 -24 14 -50.5t42.5 -54t38 -36t32.5 -26.5z" />
    <glyph glyph-name="quotedblright" unicode="&#x201d;" horiz-adv-x="944" 
d="M627 690l-11 17q91 73 116 124q11 23 11 43q0 18 -13.5 25t-41.5 9t-41 7q-53 21 -53 84q0 34 24 59t58 25q47 0 86 -41t39 -110q0 -41 -16.5 -80.5t-39.5 -66.5t-50 -49.5t-44 -32.5t-24 -13zM250 690l-10 17q129 96 129 167q0 18 -14.5 25t-43 9t-41.5 7q-53 21 -53 84
q0 34 24 59t58 25q48 0 86.5 -41t38.5 -110q0 -51 -24 -98t-57 -76.5t-57.5 -46.5t-35.5 -21z" />
    <glyph glyph-name="bullet" unicode="&#x2022;" horiz-adv-x="1214" 
d="M758 526q0 -63 -45 -107t-107 -44t-106.5 44t-44.5 107t44.5 107.5t106.5 44.5t107 -44.5t45 -107.5z" />
    <glyph glyph-name="guilsinglleft" unicode="&#x2039;" horiz-adv-x="681" 
d="M567 932l-235 -400l235 -395h-164l-276 395l276 400h164z" />
    <glyph glyph-name="guilsinglright" unicode="&#x203a;" horiz-adv-x="681" 
d="M289 932l276 -400l-276 -395h-164l235 395l-235 400h164z" />
    <glyph glyph-name="careof" unicode="&#x2105;" horiz-adv-x="1957" 
d="M1386 1147h109l-877 -1233h-108zM733 623l49 -95l-12 -7q-11 -7 -18.5 -11t-23.5 -12.5t-30.5 -14.5t-35.5 -14t-43 -13t-47.5 -10t-54.5 -7.5t-60 -2.5q-177 0 -288.5 88.5t-111.5 229.5q0 152 110 241.5t277 89.5q80 0 153.5 -22t105.5 -41t71 -47l-59 -86
q-1 1 -19.5 14.5t-22 16t-21.5 14.5t-26 15t-26 12t-31.5 12t-32.5 8t-39 6.5t-42 1.5q-140 0 -216.5 -65.5t-76.5 -167.5q0 -95 75 -159.5t216 -64.5q36 0 71.5 5.5t60.5 13t52.5 19.5t41 20t32.5 19.5t22 13.5zM1509 72q119 0 194 69.5t75 165.5q0 95 -77 165.5t-192 70.5
q-116 0 -192 -67.5t-76 -168.5q0 -97 76 -166t192 -69zM1882 307q0 -66 -22.5 -122t-59.5 -94.5t-85.5 -65.5t-100.5 -39.5t-105 -12.5q-92 0 -166.5 32.5t-118 83.5t-66.5 107.5t-23 110.5q0 71 24 129t62 95t88 62.5t100 36.5t100 11q152 0 262.5 -94t110.5 -240z" />
    <glyph glyph-name="trademark" unicode="&#x2122;" horiz-adv-x="1904" 
d="M750 930h-232v-500h-133v500h-231v131h596v-131zM1350 512l-217 313v-395h-132v631h129l220 -311l219 311h131v-631h-131v395z" />
    <glyph glyph-name="onethird" unicode="&#x2153;" horiz-adv-x="1957" 
d="M373 414h-117v647h117v-647zM1288 1147l-878 -1233h-131l878 1233h131zM1386 -27q-114 0 -194 25t-162 78l60 88q45 -27 49 -29q41 -20 57 -26q87 -27 188 -27q121 0 192 26.5t71 63.5q0 49 -65.5 78t-160.5 29h-75v108h75q73 0 128 24t55 66q0 9 -4.5 18t-18 20.5
t-35 20.5t-59.5 15t-88 6q-69 0 -125 -16q-17 -5 -113 -43l-51 92q52 25 86 39t88 25.5t113 11.5q151 0 237 -52.5t86 -132.5q0 -54 -32 -98q-18 -25 -43 -43q45 -25 69 -49q49 -49 49 -117q0 -93 -103.5 -147t-273.5 -54z" />
    <glyph glyph-name="st" unicode="&#xfb06;" horiz-adv-x="1626" 
d="M1538 938h-283v-602h-122v602h-285v123h690v-123zM248 782l180 -10q127 -6 203 -60t76 -157q0 -101 -99 -168.5t-282 -67.5q-107 0 -216.5 32t-189.5 89l68 103q61 -36 93.5 -52.5t99.5 -32.5t151 -16q129 0 190.5 34t61.5 81q0 46 -37 66.5t-105 23.5l-206 12
q-58 4 -99.5 14.5t-81 32.5t-60 64.5t-20.5 103.5q0 77 100.5 140t268.5 63q176 0 324 -94l-60 -102q-75 44 -131.5 58.5t-144.5 14.5q-102 0 -168 -28t-66 -70q0 -66 150 -74z" />
    <glyph glyph-name="flourishopen" horiz-adv-x="1832" 
d="M1454 530q13 -3 25 -8.5t26 -16.5t22.5 -30.5t8.5 -44.5q0 -31 -23.5 -54.5t-50.5 -23.5q-48 0 -73 32t-25 81q0 59 48.5 110.5t111.5 51.5q60 0 105 -24.5t69 -64.5t35.5 -82t11.5 -85q0 -61 -24 -124t-69.5 -119.5t-122.5 -92t-173 -35.5q-67 0 -128.5 18.5t-120.5 57
t-101.5 73.5t-102.5 91q-130 124 -181 165q-141 109 -267 109t-213.5 -84.5t-87.5 -200.5q0 -93 45 -141.5t108 -48.5q47 0 74 55q-31 6 -57.5 30t-26.5 73q0 31 23 53t51 22q50 0 74 -31.5t24 -80.5q0 -58 -48.5 -109t-111.5 -51q-60 0 -105 23.5t-69 62.5t-35.5 81
t-11.5 87q0 61 24 124t69.5 120t122.5 93t173 36q57 0 115.5 -18t102 -40.5t101 -67t90 -73t90.5 -83.5q20 -19 30 -28q109 -102 191.5 -153t180.5 -51q126 0 213.5 84.5t87.5 195.5q0 95 -45 145t-108 50q-46 0 -72 -58z" />
    <glyph glyph-name="flourishclose" horiz-adv-x="2107" 
d="M1765 258q0 -44 -11.5 -86.5t-35.5 -82.5t-69.5 -64.5t-106.5 -24.5q-64 0 -113 52.5t-49 111.5q0 49 25.5 82t73.5 33q27 0 51 -24.5t24 -55.5q0 -49 -27 -73t-57 -28q23 -57 74 -57q63 0 108.5 49.5t45.5 145.5q0 113 -87.5 198.5t-215.5 85.5q-53 0 -102.5 -15.5
t-99 -48.5t-86 -64t-89.5 -81q-139 -127 -185 -164q-190 -143 -350 -147q-97 0 -175.5 36t-124.5 92.5t-70.5 120t-24.5 124.5q0 45 12 88.5t36.5 83.5t70 65t106.5 25q64 0 113 -52t49 -110q0 -51 -25 -83t-75 -32q-27 0 -50.5 22.5t-23.5 53.5q0 50 26.5 74t57.5 31
q-27 55 -74 55q-63 0 -109 -50t-46 -147q0 -113 88.5 -198.5t216.5 -85.5q60 0 117 20.5t114 62.5t99.5 80t103.5 97l18 18q61 57 104 92.5t102.5 74.5t121.5 58t129 19q79 0 146 -24t112 -63t76.5 -89t46 -101t14.5 -100z" />
    <glyph glyph-name="ampersandalternate" horiz-adv-x="1085" 
d="M696 584h-98q-30 0 -50.5 -0.5t-60.5 -5t-68 -13t-62.5 -25.5t-56.5 -41t-37 -61.5t-15 -85.5q0 -113 80 -174t209 -61q119 0 186.5 56.5t67.5 162.5q0 100 -95 248zM975 737v-125l-123 6q3 -6 16 -29t17.5 -31.5t16 -31t16 -35t12.5 -34.5t11 -39t6 -39.5t3 -44.5
q0 -163 -108.5 -262t-309.5 -99q-193 0 -317.5 102.5t-124.5 276.5q0 77 23 137.5t63.5 98.5t85.5 60.5t98 35.5v4q-72 29 -97 47q-70 53 -70 166q0 70 33.5 125.5t88 88t116 49t124.5 16.5q21 0 41.5 -2t37 -4t35 -7t30 -8.5t28.5 -11t25.5 -11t24.5 -13t21.5 -12.5
t22 -13.5t19.5 -12.5l-78 -118q-102 71 -191 71q-42 0 -81 -8t-75 -24.5t-57.5 -46.5t-21.5 -70q0 -44 32 -75.5t87 -47t113.5 -22.5t125.5 -7h281z" />
    <glyph glyph-name="rperiodsuperior" horiz-adv-x="786" 
d="M922 508q0 -38 -28 -64t-65 -26q-38 0 -64 26t-26 64q0 37 26 63.5t64 26.5t65.5 -26.5t27.5 -63.5zM121 954v-166h282q75 0 111.5 18t36.5 68q0 44 -35.5 62t-112.5 18h-282zM500 692l176 -260h-127l-170 252h-258v-252h-107v629h422q41 0 76.5 -8.5t69 -27.5t53.5 -58
t20 -93q0 -37 -11.5 -67.5t-26 -48t-39 -32.5t-40 -21t-38.5 -13z" />
    <glyph glyph-name="rsperiodsuperior" horiz-adv-x="1624" 
d="M1073 819l156 -8q110 -6 175.5 -52.5t65.5 -137.5q0 -88 -84.5 -145.5t-244.5 -57.5q-95 0 -189.5 27t-163.5 77l58 88q56 -33 81.5 -46t85 -27.5t132.5 -14.5q113 0 166 30.5t53 72.5q0 39 -31.5 55.5t-91.5 19.5l-178 13q-50 3 -86.5 12t-70.5 28.5t-52 56t-18 89.5
q0 67 86.5 121.5t232.5 54.5q151 0 283 -82l-52 -88q-67 38 -116.5 51t-124.5 13q-87 0 -145 -25t-58 -59q0 -59 131 -66zM1726 508q0 -38 -26.5 -64t-63.5 -26q-38 0 -64 26t-26 64q0 37 26 63.5t64 26.5q37 0 63.5 -26.5t26.5 -63.5zM121 954v-166h282q75 0 111.5 18
t36.5 68q0 44 -35.5 62t-112.5 18h-282zM500 692l176 -260h-127l-170 252h-258v-252h-107v629h422q41 0 76.5 -8.5t69 -27.5t53.5 -58t20 -93q0 -37 -11.5 -67.5t-26 -48t-39 -32.5t-40 -21t-38.5 -13z" />
    <glyph glyph-name="speriodsuperior" horiz-adv-x="837" 
d="M223 819l156 -8q110 -6 176 -53t66 -137q0 -88 -85 -145.5t-245 -57.5q-95 0 -189 27t-163 77l57 88q56 -33 81.5 -46t85 -27.5t132.5 -14.5q113 0 166 30.5t53 72.5q0 39 -31.5 55.5t-91.5 19.5l-178 13q-50 3 -86.5 12t-70.5 28.5t-52 56t-18 89.5q0 67 86.5 121.5
t232.5 54.5q151 0 283 -82l-51 -88q-67 38 -116.5 51t-125.5 13q-88 0 -145.5 -25t-57.5 -59q0 -59 131 -66zM877 508q0 -38 -27 -64t-64 -26q-38 0 -64 26t-26 64q0 37 26 63.5t64 26.5q37 0 64 -26.5t27 -63.5z" />
    <glyph glyph-name="Aswash" horiz-adv-x="1177" 
d="M764 498l-174 381l-180 -381h354zM1157 -4h-160l-170 358h-489l-123 -274q-22 -50 -44.5 -90t-61.5 -85.5t-84 -75.5t-112 -50.5t-146 -20.5h-72l8 144h76q112 0 181.5 58.5t121.5 170.5l440 930h135z" />
    <glyph glyph-name="Dapostrophe" horiz-adv-x="1574" 
d="M377 881v-701h401q156 0 258.5 90.5t102.5 261.5q0 95 -29.5 164.5t-81.5 108.5t-114.5 57.5t-135.5 18.5h-401zM197 0v1061h581q77 0 146 -12t143.5 -47.5t128 -91.5t88.5 -152.5t35 -222.5q0 -133 -44 -237.5t-120 -168.5t-172 -96.5t-205 -32.5h-581zM1440 690l-10 17
q126 101 126 167q0 18 -14 25t-42.5 9t-41.5 7q-51 20 -51 84q0 34 24 59t58 25q47 0 85 -41t38 -110q0 -51 -24 -98t-57 -77t-56.5 -46.5t-34.5 -20.5z" />
    <glyph glyph-name="baselinerulequarterpt" horiz-adv-x="1415" 
d="M2 0h1413v-35h-1415z" />
    <glyph glyph-name="Oapostrophe" horiz-adv-x="1710" 
d="M1438 530q0 -115 -45 -217.5t-126.5 -179t-205.5 -121.5t-273 -45q-147 0 -270.5 45t-205.5 121.5t-127.5 179t-45.5 217.5t44.5 217.5t126 179.5t205.5 122t273 45t273 -45t205.5 -122.5t126.5 -179.5t45 -217zM788 147q214 0 341.5 111.5t127.5 271.5q0 77 -32.5 146.5
t-91.5 122t-148.5 83.5t-196.5 31t-196.5 -31t-148.5 -83.5t-91.5 -122t-32.5 -146.5t32.5 -146.5t91.5 -122t148.5 -83.5t196.5 -31zM1569 690l-8 17q91 73 116 124q11 23 11 43q0 18 -14.5 25t-43 9t-41.5 7q-53 21 -53 84q0 34 24.5 59t59.5 25q47 0 85 -41t38 -110
q0 -51 -24 -98t-57 -76.5t-57.5 -46.5t-35.5 -21z" />
    <glyph glyph-name="one.pl" horiz-adv-x="964" 
d="M575 0h-157v889l-213 -101l-39 148l268 125h141v-1061z" />
    <glyph glyph-name="csuperior" horiz-adv-x="679" 
d="M629 600l55 -98l-17 -10q-17 -10 -30.5 -16.5t-38.5 -18.5t-51 -20t-59 -16.5t-72 -13t-80 -4.5q-160 0 -262.5 92.5t-102.5 241.5q0 138 106.5 231t258.5 93q65 0 122.5 -12t103.5 -35.5t68 -37.5t54 -38l-68 -90q-155 100 -280 100q-116 0 -184 -60.5t-68 -150.5
q0 -87 66 -154t186 -67q158 0 293 84z" />
    <glyph glyph-name="rd" horiz-adv-x="1986" 
d="M1124 336v725h377q79 0 152 -24t131.5 -69.5t93.5 -117.5t35 -160q0 -114 -57.5 -195.5t-149.5 -120t-205 -38.5h-377zM221 938v-190h326q168 0 168 98q0 52 -39.5 72t-128.5 20h-326zM1247 938v-479h254q122 0 205.5 59.5t83.5 171.5q0 115 -80 181.5t-209 66.5h-254z
M659 635l201 -299h-145l-197 291h-297v-291h-123v725h488q37 0 70 -5.5t67.5 -20t59 -37.5t40 -62t15.5 -90q0 -50 -16 -87.5t-45 -60.5t-52 -34.5t-55 -24.5q-7 -3 -11 -4z" />
    <glyph glyph-name="oneromannumeral" horiz-adv-x="720" 
d="M270 1335h181v-1335h-181v1335z" />
    <glyph glyph-name="fiveromannumeral" horiz-adv-x="1554" 
d="M1294 1335h201l-637 -1335h-158l-641 1335h205l518 -1077z" />
    <glyph glyph-name="tenromannumeral" horiz-adv-x="1517" 
d="M1354 1335l-482 -596l580 -739h-231l-463 590l-461 -590h-231l577 735l-467 600h232l352 -452l362 452h232z" />
    <glyph glyph-name="apostrophec" horiz-adv-x="1554" 
d="M39 999l-14 23q1 1 13.5 11.5t20 16.5t22.5 19.5t25 23.5t24.5 25.5t24.5 28t21 29t17.5 31t11 30.5t4.5 31q0 26 -20.5 35t-60.5 12.5t-60 11.5q-76 30 -76 121q0 50 35 85.5t84 35.5q69 0 124.5 -60t55.5 -159q0 -60 -24 -117.5t-57.5 -97t-71.5 -71t-63 -47t-36 -18.5
zM1350 297l80 -166q-91 -62 -168 -93q-170 -71 -371 -71q-292 0 -476 156t-184 409q0 162 84.5 291t229 200t321.5 71q85 0 164.5 -15.5t131.5 -34t110.5 -52t81.5 -50t63 -47.5l-96 -152q-5 3 -38 25t-41.5 27.5t-39.5 24.5t-46.5 25.5t-46.5 21t-54.5 20t-55.5 13.5
t-64.5 10.5t-68.5 2.5q-206 0 -330 -112.5t-124 -280.5q0 -72 29.5 -137.5t86.5 -118.5t150.5 -85t210.5 -32q70 0 139 13t113 27.5t96 41.5t66.5 37t46.5 31z" />
    <glyph glyph-name="apostrophes" horiz-adv-x="1554" 
d="M41 999l-14 23q1 1 13.5 11.5t20 16.5t22.5 19.5t25 23.5t24.5 25.5t24.5 28t21 29t17.5 31t11 30.5t4.5 31q0 26 -20.5 35t-60.5 12.5t-60 11.5q-76 30 -76 121q0 50 35 85.5t84 35.5q69 0 124.5 -60t55.5 -159q0 -60 -24 -117.5t-57.5 -97t-71.5 -71t-63 -47t-36 -18.5
zM1360 952l-84 -161q-105 59 -166 80q-121 42 -272 42q-146 0 -221.5 -36.5t-75.5 -104.5q0 -55 22 -81.5t95 -40t225 -13.5q100 0 180 -9t135.5 -23.5t95.5 -38t63.5 -48t37 -58.5t18 -64.5t4.5 -69.5q0 -359 -522 -359q-366 0 -623 180l86 158q114 -69 164 -90
q154 -68 377 -68q324 0 324 160q0 98 -78.5 121t-388.5 29q-197 5 -303.5 72t-106.5 223q0 69 27.5 129t83.5 108.5t153 76.5t226 28q90 0 175.5 -15t161 -44t106.5 -43t81 -40z" />
    <glyph glyph-name="bulletlowercase" horiz-adv-x="964" 
d="M635 422q0 -52 -36 -87.5t-87 -35.5t-86 35.5t-35 87.5q0 50 35.5 85.5t85.5 35.5q51 0 87 -35.5t36 -85.5z" />
    <glyph glyph-name="nd" horiz-adv-x="1986" 
d="M1217 938v-479h253q122 0 205.5 59.5t83.5 171.5q0 115 -80 181.5t-209 66.5h-253zM1094 336v725h376q79 0 152 -24t131.5 -69.5t93.5 -117.5t35 -160q0 -114 -57.5 -195.5t-149.5 -120t-205 -38.5h-376zM698 1061h121v-725h-112l-480 528v-528h-121v725h109l483 -533
v533z" />
    <glyph glyph-name="th" horiz-adv-x="1957" 
d="M731 938h-282v-602h-121v602h-285v123h688v-123zM997 336v725h121v-295h469v295h123v-725h-123v307h-469v-307h-121z" />
  </font>
</defs>
</svg>
